#TITLE:Don't Forget Me;
#SUBTITLE:Dead Master;
#ARTIST:Gilrs Day;
#TITLETRANSLIT:;
#SUBTITLETRANSLIT:;
#ARTISTTRANSLIT:;
#CREDIT:;
#BANNER:bn.jpg;
#BACKGROUND:bg.jpg;
#LYRICSPATH:;
#CDTITLE:cdtitle.png;
#MUSIC:Don't Forget Me.ogg;
#OFFSET:-2.090;
#SAMPLESTART:47.079;
#SAMPLELENGTH:12.000;
#SELECTABLE:YES;
#BPMS:0.000=133.367;
#STOPS:;
#BGCHANGES:;
// cache tags:
#FIRSTBEAT:0.250;
#LASTBEAT:295.750;
#SONGFILENAME:Songs/sdf/Don't Forget Me-Girls Day/Don't Forget Me.sm;
#HASMUSIC:1;
#HASBANNER:1;
#MUSICLENGTH:136.119;
// end cache tags

//---------------dance-single - ----------------
#NOTES:
     dance-single:
     :
     Hard:
     1:
     0.654,0.733,0.522,0.338,0.966,506.000,71.000,46.000,0.000,0.000:
0000
1000
0000
0001
0000
0001
0000
0100
0010
0000
0010
0000
1000
0000
0000
0010
,
0000
0010
0000
0100
0000
0001
0000
0001
0000
1000
0000
0010
0010
0000
0000
0000
,
0100
0000
0001
0000
0000
1000
0010
0000
0010
0000
0100
0001
0000
0001
0000
1000
,
0010
0000
0010
0000
0100
0001
0001
0000
1000
0000
0010
0000
0000
0101
0000
0000
,
0000
1010
0000
0000
0000
0101
0000
0000
0000
1010
0000
0000
0000
0101
0000
0000
,
0000
1010
0000
0000
0000
0101
0000
0000
0000
0010
1000
0000
0000
0101
0000
0000
,
0000
1010
0000
0000
0000
0101
0000
0000
0000
1010
0000
0000
0000
0101
0000
0000
,
0000
1010
0000
0000
0000
0101
0000
0000
0000
0001
0000
0000
0000
0010
0000
0000
,
0000
0100
0000
0010
0000
0010
0000
0000
0000
1000
0000
0010
0000
0000
0100
0001
,
0000
0100
0000
0010
0000
0000
1000
0000
0000
0000
0000
0010
0000
0100
0000
0001
,
0000
1000
0000
0010
0000
0100
0000
0000
0010
0000
0100
0000
0001
0000
1000
0000
,
0000
0010
0000
0100
0001
0000
0000
0000
0000
0010
0000
0000
0100
0000
0010
0000
,
1000
0000
0001
0000
0200
0000
0000
0300
0010
0000
0010
0000
0100
0000
0001
0000
,
1000
0000
0010
0000
0100
0001
0001
0000
0000
0000
0000
0100
0000
0010
0000
1000
,
0000
0010
0010
0000
0100
0000
0001
0000
1000
0000
0000
0010
0000
0100
0000
0000
,
0010
0000
0000
0010
0000
0000
0000
0010
0000
0000
0010
0000
0000
0000
0001
0000
,
0001
0001
0001
0000
1000
1000
0000
0001
,
0000
0110
0000
0000
1001
0000
0000
0000
0010
0000
0010
0100
0000
0001
0000
0001
,
0000
1000
0010
0000
0020
0000
0000
0030
0100
1000
0200
0000
0000
0000
0000
0310
,
0000
0011
2000
0000
0000
0000
0000
0000
3010
0001
0020
0000
0000
0000
0000
0030
,
0100
1000
0200
0000
0000
0310
0000
0020
0000
0000
0030
0000
0010
0001
0010
1000
,
0100
0000
0010
0020
0000
0000
0000
0000
0030
0100
1000
0200
0000
0000
0000
0300
,
0010
0010
0001
0020
0000
0000
0030
0100
0000
1000
0200
0000
0000
0000
0300
0010
,
0010
0001
0020
0000
0000
0000
0030
0100
1000
0200
0000
0000
0000
0300
0010
0000
,
0001
0010
0000
1000
0000
0010
0010
0000
0000
0001
0000
0001
0100
0010
0000
1001
,
0000
0110
0000
0001
1000
0000
0010
0100
0001
0000
1010
0000
0000
0000
0101
0000
,
0000
0110
0000
0101
0000
0000
0001
1000
0000
0000
0000
0110
0100
0001
0001
1000
,
0000
0000
0101
0000
0101
0000
1010
0000
0010
0000
0000
0101
0101
0000
1010
0000
,
1001
0000
0000
0101
0000
0000
0101
0000
0000
0000
1010
0000
1010
0000
0010
0100
,
0000
0110
0000
1001
0000
0000
0010
0100
0101
0001
0100
0000
0001
0000
1000
0010
,
0000
0110
0000
0101
0000
0000
0000
1010
0000
0000
0000
0101
0000
0101
0000
1010
,
0000
0000
0000
0101
0101
0000
0010
1000
0000
0000
0101
0000
0101
0000
1010
0000
,
1010
0000
0000
0101
0000
0000
0000
1010
0000
0000
0000
0001
0000
0000
0000
0001
,
0000
0000
0000
0001
0000
0000
0001
0000
0000
0000
0000
1000
0000
1000
1000
0000
,
1000
0000
1000
0000
1000
1000
0000
0000
0010
0000
0010
0000
0010
0000
0010
0010
,
0000
0010
0000
0010
0010
0000
0100
0000
0100
0000
0100
0000
0100
0100
0000
0100
,
0100
0000
0100
0000
0000
0100
0000
0100
0001
0000
0001
0000
0001
0001
0000
0001
,
0000
0001
0000
0001
0000
0001
0001
0000
1000
0000
1000
0000
1000
0000
1000
0000
,
1000
1000
0000
1000
0000
1000
1000
0000
0010
0000
0010
0000
0010
0010
0000
0010
,
0000
0010
0000
0010
0010
0000
0100
0000
0100
0000
0100
0000
0100
0100
0000
0100
,
0000
0100
0100
0000
0100
0000
0001
0001
0000
0001
0000
0001
0000
0001
0000
0001
,
0000
0001
0000
0001
0001
0000
0001
0000
0000
0000
0000
0010
0100
0000
0000
0010
,
1000
0000
0001
0000
0000
0100
0000
0010
0000
0100
0000
0010
0000
1000
0001
0000
,
0000
0100
0000
0000
0010
0000
0100
0000
0010
0000
0001
0000
1000
0010
0000
0100
,
0000
0001
0000
1000
0000
0010
0010
0000
0100
0000
0002
0000
0000
0000
0000
0000
,
0000
0000
0000
0003
0000
0000
0100
0010
0000
0020
0000
0000
0000
0030
0100
0000
,
0100
0000
2000
0000
0000
3100
0010
0000
0020
0000
0000
0000
0030
0100
0000
1100
,
0000
0020
0000
0000
0000
0130
0001
0000
0020
0000
0000
0000
0000
0000
0000
0000
,
0000
0000
0000
0000
1030
0100
0000
0010
0000
0020
0000
0000
0000
0000
0000
0000
,
0000
0000
0000
0130
0000
0001
0000
0001
1000
0100
0000
0020
0000
0000
0000
0000
,
0000
0000
0000
0000
0000
0000
0000
0000
0000
1000
0030
0200
0000
0000
0000
0000
,
0000
0000
0000
0000
0000
0000
0000
0000
0000
0300
0010
0000
0000
0000
0000
0010
,
0010
0000
0000
0000
0000
0010
0010
0000
0000
0000
0000
1001
0000
0010
0000
0101
,
0000
0110
0000
0000
1001
0000
0010
0100
0101
0000
1010
0000
0001
0000
0001
0000
,
0021
0000
0000
0000
0000
1030
0100
0000
0020
0000
0000
0000
0030
0100
1000
0100
,
0020
0000
0000
0000
0030
0100
1000
0100
0020
0000
0000
0000
0030
0001
0000
0010
,
0000
0100
0010
0000
0010
0010
0000
0000
0100
0001
0010
0000
1100
0000
0110
0000
,
0010
0001
0020
0000
0000
0130
1000
0200
0000
0000
0000
0000
0310
0001
0010
0200
,
0000
0000
0000
0310
0000
0010
0000
1000
0200
0000
0000
0000
0000
0310
0000
0021
,
0000
0000
0000
0030
0001
0001
0020
0000
0000
0000
0000
0130
1000
0100
0010
0000
,
0010
0000
0001
0000
0001
0000
0000
0000
0010
0100
0000
0101
0000
0010
0000
0001
,
1000
0010
0000
0010
0000
0100
1000
0100
0010
0000
0000
0001
0010
0000
1100
0000
,
0200
0000
0000
0000
0310
0000
0000
0000
0000
1001
0000
0001
0000
0110
0000
0000
,
0101
0001
0100
0000
1010
0000
0000
0001
0100
0110
0000
1000
0000
0020
0000
0000
,
0030
0002
0000
0000
0023
0000
0000
0030
0100
0000
1000
0100
0010
0000
0010
0000
,
0001
0010
0000
0100
0000
1000
0100
0010
0000
0010
0001
0010
0000
0100
1000
0100
,
0020
0000
0000
0000
0230
0000
0000
0000
0310
0010
0000
0021
0000
0000
0000
0130
,
0000
1000
0100
0020
0000
0000
0000
0000
0130
1000
0100
0000
0010
0010
0001
0000
,
0020
0000
0000
0030
0200
0000
0000
0300
0000
0010
0000
0000
0000
0010
0000
0000
,
0000
0010
0000
0000
0000
0010
0000
0000
0000
0001
0000
0000
0010
0000
0010
0000
,
0100
0010
0000
1000
0000
0010
0020
0000
0000
0000
0030
0100
0000
0010
0010
0000
,
0100
0000
0001
0000
0001
0000
0000
1000
0010
0000
0000
0100
0000
0020
0000
0000
,
0030
2000
0000
0000
0000
3000
0100
0000
0000
0020
0000
0000
0000
0000
0000
0000
,
0000
0000
0000
0000
0000
0000
0000
0000
0000
0000
0000
0000
0000
0000
0000
1030
;
